Categories
Photography

Todays’ Menu

Todays’ audio meal

PERFORMER “deejaytechspecs.com”
TITLE “In the mix”
FILE “/home/nicholas/Music/Mixxx/Recordings/2021-11-15_10h08m59s.wav” WAVE
TRACK 01 AUDIO
TITLE “Yukon (Original Mix)”
PERFORMER “Clive From Accounts”
INDEX 01 00:10:65
TRACK 02 AUDIO
TITLE “Pantaloon (Phantom Beats Mix)”
PERFORMER “The Spoon Wizard”
INDEX 01 02:44:61
TRACK 03 AUDIO
TITLE “Feelz (Original Mix)”
PERFORMER “Bartholomew Kind”
INDEX 01 04:37:53
TRACK 04 AUDIO
TITLE “Lofn (Original Mix)”
PERFORMER “Ohm, Octal Industries”
INDEX 01 08:33:57
TRACK 05 AUDIO
TITLE “GTC (Hard Drive Library Remix)”
PERFORMER “Najeh”
INDEX 01 11:07:53

My Review

Review Form...

Reviews

Loading Reviews...

By Nicholas Dedich

Leave a Reply