Feed…

Feed… A starting point.

28 replies on “Feed…”

$1.00 AUD for subscription info, hmu to access Radio Beacon v2.0

PERFORMER “deejaytechspecs”
TITLE “deejaytechspecs In the mix”

TRACK 01 AUDIO
TITLE “Graviton (Original Mix)”
PERFORMER “Thomas Helmich”
INDEX 01 00:11:52
TRACK 02 AUDIO
TITLE “Void (Aire Remix)”
PERFORMER “Teklix”
INDEX 01 04:03:60
TRACK 03 AUDIO
TITLE “Moran (Original Mix)”
PERFORMER “Rodriguez Jr., Kadosh (IL)”
INDEX 01 08:06:72
TRACK 04 AUDIO
TITLE “Dive (Extended Mix)”
PERFORMER “Into The Ether, Lumynesynth”
INDEX 01 10:30:49
TRACK 05 AUDIO
TITLE “Integrity (Original Mix)”
PERFORMER “Martín Dubiansky”
INDEX 01 12:43:21
TRACK 06 AUDIO
TITLE “Lux Aeterna (Extended Mix)”
PERFORMER “Nick Muir”
INDEX 01 15:51:13
TRACK 07 AUDIO
TITLE “Pasan Cosas (Original Mix)”
PERFORMER “Freedo Mosho”
INDEX 01 17:41:53
TRACK 08 AUDIO
TITLE “Game Over (Original Mix)”
PERFORMER “Steve Levi”
INDEX 01 23:01:71
TRACK 09 AUDIO
TITLE “Dance Instruction (Original Mix)”
PERFORMER “Astral Base”
INDEX 01 25:03:40
TRACK 10 AUDIO
TITLE “Atlantic (Original Mix)”
PERFORMER “Ewan Rill”
INDEX 01 27:38:20
TRACK 11 AUDIO
TITLE “Editors (Original Mix)”
PERFORMER “Dave Shtorn”
INDEX 01 30:12:34
TRACK 12 AUDIO
TITLE “Get On (Extended Mix)”
PERFORMER “ANUQRAM”
INDEX 01 34:37:54
TRACK 13 AUDIO
TITLE “Between The Sun & The Moon (Original Mix)”
PERFORMER “Tom Pool, MURJD”
INDEX 01 39:02:73
TRACK 14 AUDIO
TITLE “Natalia (Extended Mix)”
PERFORMER “Tanner Wilfong”
INDEX 01 40:20:26
TRACK 15 AUDIO
TITLE “Pulsar (Original Mix)”
PERFORMER “ELECGROUND”
INDEX 01 44:23:38
TRACK 16 AUDIO
TITLE “Anatole (HAEN Remix)”
PERFORMER “Nikko.Z”
INDEX 01 47:53:17
TRACK 17 AUDIO
TITLE “Muusiiqaa (Original Mix)”
PERFORMER “Paul Hamilton, CaThY K”
INDEX 01 49:32:53
TRACK 18 AUDIO
TITLE “Signals (Paul Hamilton Remix)”
PERFORMER “Zstimer”
INDEX 01 52:51:28
TRACK 19 AUDIO
TITLE “It Was and It Will (Original Mix)”
PERFORMER “Hobin Rude”
INDEX 01 55:04:01
TRACK 20 AUDIO
TITLE “Luca Libre (Kyotto Remix)”
PERFORMER “Jose Tabarez”
INDEX 01 59:06:67

Some ways to motivate yourself to study::
Acknowledge your resistance and difficult feelings with motivation. …
Do not run away. …
Do not blame yourself for procrastinating now and then. …
Try to understand your studying style better. …
Don’t question your abilities. …
Visualise yourself starting. …
Focus on the task at hand.

(Google Search)

Leave a Reply

Private

wpChatIcon
%d bloggers like this: